<?xml version="1.0" standalone="no"?>
<!DOCTYPE svg PUBLIC "-//W3C//DTD SVG 1.1//EN" "http://www.w3.org/Graphics/SVG/1.1/DTD/svg11.dtd" >
<svg xmlns="http://www.w3.org/2000/svg">
<metadata></metadata>
<defs>
<font id="fira_sans_otbold_italic" horiz-adv-x="1062" >
<font-face units-per-em="2048" ascent="1638" descent="-410" />
<missing-glyph horiz-adv-x="483" />
<glyph horiz-adv-x="0" />
<glyph horiz-adv-x="0" />
<glyph horiz-adv-x="682" />
<glyph unicode="&#xd;" horiz-adv-x="483" />
<glyph unicode=" "  horiz-adv-x="483" />
<glyph unicode="&#x09;" horiz-adv-x="483" />
<glyph unicode="&#xa0;" horiz-adv-x="483" />
<glyph unicode="!" horiz-adv-x="509" d="M20 152q0 76 55 131t132 55q78 0 132 -54.5t54 -131.5t-54 -132t-132 -55q-77 0 -132 55.5t-55 131.5zM113 475l65 944h354l-153 -899z" />
<glyph unicode="&#x22;" horiz-adv-x="1050" d="M221 1419h295l-67 -571h-226zM635 1419h297l-70 -571h-225z" />
<glyph unicode="#" horiz-adv-x="1128" d="M-14 295l26 215h152l98 383h-129l25 215h159l70 276h270l-69 -276h192l70 276h272l-71 -276h118l-24 -215h-150l-96 -383h125l-27 -215h-155l-74 -295h-270l73 295h-192l-74 -295h-270l74 295h-123zM434 510h193l98 383h-193z" />
<glyph unicode="$" horiz-adv-x="1167" d="M-2 184l190 187q164 -148 347 -148q101 0 163 45t62 121q0 70 -45 113t-172 86q-218 73 -309 170.5t-91 251.5q0 155 118.5 263.5t322.5 129.5l32 299h240l-35 -305q212 -34 355 -168l-172 -189q-144 125 -320 125q-90 0 -137 -34t-47 -93t49 -99t201 -95 q195 -70 280.5 -172t87.5 -252q0 -180 -126.5 -304t-352.5 -147l-35 -299h-239l36 307q-124 21 -229.5 76.5t-173.5 130.5z" />
<glyph unicode="%" horiz-adv-x="1779" d="M133 999q0 192 107 303t286 111q147 0 245.5 -91.5t98.5 -234.5q0 -111 -43.5 -203t-135 -150t-216.5 -58q-147 0 -244.5 89.5t-97.5 233.5zM248 47l1122 1428l193 -132l-1127 -1427zM367 1012q0 -68 31.5 -105t86.5 -37q74 0 112 57.5t38 147.5q0 70 -32 107t-87 37 q-71 0 -110 -58t-39 -149zM928 289q0 192 107 302.5t286 110.5q147 0 245.5 -92t98.5 -233q0 -112 -43.5 -204t-134.5 -150t-215 -58q-148 0 -246 90t-98 234zM1161 297q0 -66 33 -101.5t88 -35.5q74 0 111 57t37 148q0 69 -32 105t-87 36q-70 0 -110 -58.5t-40 -150.5z" />
<glyph unicode="&#x26;" horiz-adv-x="1902" d="M53 514q0 140 38.5 266.5t106 221t155.5 164.5t189.5 105.5t205.5 35.5q202 0 309.5 -85.5t107.5 -238.5q0 -76 -29.5 -146.5t-91.5 -133.5t-152 -112.5t-217 -84t-280 -47.5q14 -132 86.5 -189t227.5 -57q247 0 429.5 141t274.5 420h-176l29 230h659l-29 -230h-198 q-69 -240 -217.5 -423t-357.5 -284.5t-449 -101.5q-621 0 -621 549zM406 668q111 11 194 38.5t130.5 67t70 84.5t22.5 96q0 56 -26.5 80.5t-81.5 24.5q-102 0 -191.5 -105t-117.5 -286z" />
<glyph unicode="'" horiz-adv-x="634" d="M221 1419h295l-67 -571h-226z" />
<glyph unicode="(" horiz-adv-x="665" d="M37 516q0 161 29 312.5t75.5 274.5t117 245t141 215.5t159.5 193.5l191 -147q-392 -470 -392 -1133q0 -356 177 -659l-228 -142q-92 151 -146 265.5t-89 262t-35 312.5z" />
<glyph unicode=")" horiz-adv-x="665" d="M-55 -176q199 238 295 526.5t96 605.5q0 357 -176 662l229 139q139 -230 204.5 -416t65.5 -423q0 -160 -29.5 -312t-76.5 -274.5t-118 -245t-141 -216t-159 -194.5z" />
<glyph unicode="*" horiz-adv-x="907" d="M90 1102l84 258l256 -125l-45 287h281l-43 -289l258 127l82 -258l-283 -49l207 -203l-225 -164l-136 254l-133 -256l-225 164l203 207z" />
<glyph unicode="+" d="M76 524l33 254h309l39 320h272l-39 -320h311l-32 -254h-312l-39 -319h-270l37 319h-309z" />
<glyph unicode="," horiz-adv-x="509" d="M-55 -365l137 367q-78 56 -78 152q0 78 54.5 131t138.5 53q79 0 129.5 -51t50.5 -127q0 -48 -17.5 -99t-62.5 -127l-172 -299h-180z" />
<glyph unicode="-" horiz-adv-x="835" d="M80 514l37 254h653l-35 -254h-655z" />
<glyph unicode="." horiz-adv-x="509" d="M8 152q0 77 54.5 131.5t132.5 54.5q77 0 131.5 -55t54.5 -131q0 -77 -55 -132t-131 -55q-78 0 -132.5 55t-54.5 132z" />
<glyph unicode="/" horiz-adv-x="1064" d="M0 -156l815 1856l266 -98l-815 -1854z" />
<glyph unicode="0" horiz-adv-x="1202" d="M78 524q0 217 45.5 387.5t127.5 279.5t193 165.5t244 56.5q217 0 339 -140.5t122 -402.5q0 -145 -23 -277.5t-72 -247.5t-119.5 -199t-171 -132.5t-220.5 -48.5q-224 0 -344.5 145.5t-120.5 413.5zM406 467q0 -260 149 -260q122 0 194 191.5t72 531.5q0 51 -6 89.5 t-21 74.5t-46.5 55.5t-77.5 19.5q-52 0 -97 -38t-83.5 -117.5t-61 -219.5t-22.5 -327z" />
<glyph unicode="1" horiz-adv-x="913" d="M74 1104l504 280h288l-170 -1384h-317l129 1055l-311 -176z" />
<glyph unicode="2" horiz-adv-x="1067" d="M-8 0l28 231q216 188 334.5 298t198 202.5t104.5 152.5t25 128q0 73 -40.5 112t-109.5 39q-131 0 -270 -145l-178 160q107 112 240 173.5t280 61.5q193 0 305.5 -94.5t112.5 -257.5q0 -68 -20.5 -137t-51.5 -127.5t-83.5 -123.5t-99.5 -114t-118.5 -110.5t-121.5 -101 t-126 -97.5h553l-63 -250h-899z" />
<glyph unicode="3" horiz-adv-x="1067" d="M-59 186l209 160q120 -131 280 -131q100 0 156.5 59t56.5 164q0 84 -51 128t-166 44h-96l65 226h51q118 0 180 54t62 146q0 62 -40 97.5t-111 35.5q-129 0 -293 -122l-138 178q241 188 504 188q188 0 296 -86.5t108 -226.5q0 -128 -79.5 -225t-234.5 -138l-2 -8 q127 -23 204 -108.5t77 -204.5q0 -192 -146.5 -321.5t-386.5 -129.5q-154 0 -290.5 59.5t-214.5 161.5z" />
<glyph unicode="4" horiz-adv-x="1153" d="M18 297l25 217l498 918l268 -115l-414 -774h232l92 325h268l-39 -325h156l-31 -246h-155l-37 -297h-320l35 297h-578z" />
<glyph unicode="5" horiz-adv-x="1118" d="M-31 172l201 166q124 -127 289 -127q113 0 176 75t63 214q0 92 -43 139t-118 47q-77 0 -175 -49h-223l94 747h850l-65 -235h-500l-39 -287q105 47 213 47q157 0 251 -102.5t95 -288.5q0 -156 -66.5 -281t-195.5 -198.5t-301 -73.5q-152 0 -290 55t-216 152z" />
<glyph unicode="6" horiz-adv-x="1157" d="M72 483q0 283 85.5 494.5t240 323.5t358.5 112q94 0 181.5 -26.5t143.5 -69.5l-145 -195q-82 58 -184 58q-106 0 -193 -103.5t-121 -294.5q73 73 157.5 111.5t162.5 38.5q147 0 241.5 -101t94.5 -282q0 -259 -155.5 -421.5t-391.5 -162.5q-235 0 -355 133t-120 385z M408 455q0 -139 34.5 -197.5t112.5 -58.5q90 0 149.5 90t59.5 252q0 166 -127 166q-111 0 -223 -125q-6 -51 -6 -127z" />
<glyph unicode="7" horiz-adv-x="958" d="M72 66l571 1073h-551l31 245h899l-27 -221l-637 -1196z" />
<glyph unicode="8" horiz-adv-x="1196" d="M29 338q0 126 81 225t232 154q-87 50 -130.5 126.5t-43.5 160.5q0 181 136.5 295t375.5 114q213 0 335 -90t122 -233q0 -112 -67.5 -204t-203.5 -147q244 -115 244 -329q0 -88 -38 -167.5t-109 -141.5t-183 -99t-250 -37q-230 0 -365.5 107.5t-135.5 265.5zM365 360 q0 -74 50 -117.5t138 -43.5q105 0 168 59t63 148q0 74 -57 121.5t-199 95.5q-163 -91 -163 -263zM485 1012q0 -62 42 -106.5t143 -80.5q151 92 151 234q0 62 -40 97.5t-109 35.5q-88 0 -137.5 -47.5t-49.5 -132.5z" />
<glyph unicode="9" horiz-adv-x="1157" d="M90 879q0 241 154.5 387.5t404.5 146.5q223 0 351 -121.5t128 -324.5q0 -431 -245 -683.5t-740 -340.5l-39 231q264 60 417.5 158.5t221.5 261.5l-8 4q-127 -121 -291 -121q-153 0 -253.5 108t-100.5 294zM422 897q0 -93 38.5 -141.5t102.5 -48.5q119 0 215 114 q15 87 15 164q0 100 -42.5 147.5t-115.5 47.5q-94 0 -153.5 -74.5t-59.5 -208.5z" />
<glyph unicode=":" horiz-adv-x="509" d="M8 152q0 77 54.5 131.5t132.5 54.5q77 0 131.5 -55t54.5 -131q0 -77 -55 -132t-131 -55q-78 0 -132.5 55t-54.5 132zM111 862q0 76 54.5 131.5t131.5 55.5t131.5 -55.5t54.5 -131.5q0 -77 -54 -131.5t-132 -54.5t-132 54.5t-54 131.5z" />
<glyph unicode=";" horiz-adv-x="509" d="M-53 -365l137 367q-78 54 -78 152q0 78 54.5 131t138.5 53q79 0 129.5 -51t50.5 -127q0 -47 -17.5 -97.5t-62.5 -128.5l-172 -299h-180zM109 862q0 76 54 131.5t130 55.5q77 0 132.5 -55.5t55.5 -131.5q0 -77 -55 -131.5t-133 -54.5q-76 0 -130 54.5t-54 131.5z" />
<glyph unicode="&#x3c;" d="M74 555l37 287l856 352l77 -242l-675 -262l606 -268l-131 -225z" />
<glyph unicode="=" d="M49 307l29 250h895l-31 -250h-893zM102 743l31 250h893l-31 -250h-893z" />
<glyph unicode="&#x3e;" d="M45 438l676 260l-606 271l131 225l768 -358l-35 -289l-858 -350z" />
<glyph unicode="?" horiz-adv-x="1021" d="M117 1235q111 113 230 167t263 54q199 0 310.5 -87.5t111.5 -219.5q0 -83 -26 -147t-67 -104t-91 -71t-100 -56t-91 -51.5t-67.5 -65.5t-26.5 -89q0 -13 4 -45l-284 -43q-15 62 -15 101q0 71 23 128.5t60 94.5t81.5 66.5t89 54t81.5 48.5t60 57t23 73q0 98 -123 98 q-135 0 -258 -129zM213 152q0 77 54 131.5t132 54.5t132.5 -54.5t54.5 -131.5t-54.5 -132t-132.5 -55t-132 55t-54 132z" />
<glyph unicode="@" horiz-adv-x="2088" d="M76 354q0 239 79 443.5t221 349.5t346 227t445 82q194 0 353 -56t264.5 -153.5t163 -229.5t57.5 -284q0 -207 -67.5 -373t-186.5 -259t-266 -93q-104 0 -174.5 56.5t-73.5 146.5l-8 2q-49 -90 -136 -142.5t-184 -52.5q-156 0 -241.5 98.5t-85.5 276.5q0 304 150.5 470.5 t395.5 166.5q87 0 180.5 -24t170.5 -68l-70 -567q-10 -86 9 -123t65 -37q87 0 158 145t71 379q0 228 -143.5 355t-417.5 127q-238 0 -415.5 -107.5t-271 -299t-93.5 -441.5q0 -278 147 -430t443 -152q107 0 225.5 20t204.5 50l51 -226q-237 -86 -492 -86 q-403 0 -638.5 218.5t-235.5 590.5zM874 391q0 -88 28.5 -128t72.5 -40q84 0 149 101l62 479q-44 20 -92 20q-97 0 -158.5 -110.5t-61.5 -321.5z" />
<glyph unicode="A" horiz-adv-x="1218" d="M-104 0l610 1419h412l260 -1419h-357l-37 305h-411l-111 -305h-366zM457 551h303l-74 600h-8z" />
<glyph unicode="B" horiz-adv-x="1269" d="M59 0l172 1419h451q261 0 392.5 -87t131.5 -242q0 -118 -78 -212t-213 -124l-2 -9q132 -29 205.5 -108t73.5 -188q0 -210 -160.5 -329.5t-480.5 -119.5h-492zM428 248h133q281 0 281 213q0 168 -213 168h-154zM502 854h129q111 0 170 51t59 144q0 66 -48 98.5t-155 32.5 h-114z" />
<glyph unicode="C" horiz-adv-x="1175" d="M76 575q0 143 31.5 274.5t94 241.5t148 192t199.5 127.5t244 45.5q140 0 246.5 -41t193.5 -131l-186 -182q-54 53 -109 76.5t-131 23.5q-90 0 -164 -54.5t-120 -144.5t-70.5 -200.5t-24.5 -227.5q0 -346 246 -346q85 0 157.5 30t149.5 89l137 -211q-209 -172 -475 -172 q-260 0 -413.5 157.5t-153.5 452.5z" />
<glyph unicode="D" horiz-adv-x="1341" d="M59 0l172 1419h402q316 0 489.5 -144t173.5 -423q0 -402 -205 -627t-587 -225h-445zM428 246h111q87 0 159.5 36.5t128.5 109t87.5 190t31.5 270.5q0 167 -78 244.5t-231 77.5h-96z" />
<glyph unicode="E" horiz-adv-x="1073" d="M59 0l172 1419h875l-66 -241h-499l-41 -338h436l-29 -238h-436l-43 -356h533l-29 -246h-873z" />
<glyph unicode="F" horiz-adv-x="1001" d="M59 0l172 1419h850l-65 -241h-475l-45 -373h413l-28 -244h-414l-68 -561h-340z" />
<glyph unicode="G" horiz-adv-x="1323" d="M76 571q0 206 56 374t156 279.5t237 171.5t298 60q297 0 475 -172l-190 -190q-117 114 -272 114q-87 0 -160 -39t-129.5 -116.5t-88.5 -205t-32 -292.5q0 -181 64.5 -261.5t189.5 -80.5q94 0 186 47l39 318h-180l-8 237h547l-88 -700q-117 -72 -253 -111t-268 -39 q-281 0 -430 153t-149 453z" />
<glyph unicode="H" horiz-adv-x="1353" d="M59 0l172 1419h340l-67 -549h416l67 549h340l-174 -1419h-340l74 606h-416l-72 -606h-340z" />
<glyph unicode="I" horiz-adv-x="600" d="M59 0l172 1419h340l-172 -1419h-340z" />
<glyph unicode="J" horiz-adv-x="612" d="M-143 -98q128 45 180.5 116t71.5 220l145 1181h340l-143 -1173q-30 -251 -150 -383.5t-381 -212.5z" />
<glyph unicode="K" horiz-adv-x="1290" d="M59 0l172 1419h340l-172 -1419h-340zM502 762l524 657h363l-527 -649l391 -770h-379z" />
<glyph unicode="L" horiz-adv-x="1040" d="M59 0l172 1419h340l-141 -1151h553l-68 -268h-856z" />
<glyph unicode="M" horiz-adv-x="1615" d="M-12 0l282 1419h424l90 -966h9l321 966h434l-67 -1419h-334l39 549q21 316 71 575h-8l-334 -979h-325l-107 979h-8q-1 -101 -19.5 -270t-41.5 -303l-92 -551h-334z" />
<glyph unicode="N" horiz-adv-x="1353" d="M59 0l172 1419h420l277 -1097h8q-4 54 -4 106q0 239 35 526l57 465h301l-172 -1419h-430l-268 1096h-9q3 -38 3 -111q0 -273 -29 -500l-60 -485h-301z" />
<glyph unicode="O" horiz-adv-x="1411" d="M76 571q0 135 26 260.5t82.5 240t138.5 199.5t202.5 135t265.5 50q265 0 420 -159.5t155 -446.5q0 -135 -26 -261t-83 -240.5t-139 -199t-203 -134.5t-266 -50q-266 0 -419.5 159t-153.5 447zM426 532q0 -168 57 -243.5t172 -75.5q63 0 115.5 25t88.5 65.5t64.5 97.5 t45 117t27 128t14.5 125.5t4 115.5q0 168 -56.5 243.5t-173.5 75.5q-85 0 -151.5 -47.5t-104 -119t-62 -166.5t-32.5 -177t-8 -164z" />
<glyph unicode="P" horiz-adv-x="1228" d="M59 0l172 1419h435q280 0 424.5 -109t144.5 -302q0 -244 -165.5 -390.5t-444.5 -146.5h-170l-56 -471h-340zM485 717h129q123 0 197 75.5t74 204.5q0 92 -60 136.5t-186 44.5h-98z" />
<glyph unicode="Q" horiz-adv-x="1411" d="M76 571q0 135 26 260.5t82.5 240t138.5 199.5t202.5 135t265.5 50q265 0 420 -159.5t155 -446.5q0 -281 -99.5 -465t-303.5 -289l-2 -8q259 -3 411 -123l-235 -264q-102 131 -218.5 200.5t-269.5 69.5q-266 0 -419.5 156t-153.5 444zM426 532q0 -168 57 -243.5t172 -75.5 q63 0 115.5 25t88.5 65.5t64.5 97.5t45 117t27 128t14.5 125.5t4 115.5q0 168 -56.5 243.5t-173.5 75.5q-85 0 -151.5 -47.5t-104 -119t-62 -166.5t-32.5 -177t-8 -164z" />
<glyph unicode="R" horiz-adv-x="1257" d="M59 0l172 1419h443q283 0 422 -100.5t139 -290.5q0 -152 -88.5 -267t-245.5 -169l299 -592h-356l-246 541h-135l-64 -541h-340zM492 774h137q125 0 190.5 62t65.5 178q0 168 -234 168h-108z" />
<glyph unicode="S" horiz-adv-x="1159" d="M-25 184l191 191q166 -152 346 -152q99 0 163 50.5t64 129.5q0 73 -45.5 118.5t-173.5 86.5q-213 70 -304 171.5t-91 260.5q0 178 147.5 297t389.5 119q304 0 499 -180l-174 -189q-142 123 -317 123q-91 0 -139 -39t-48 -106q0 -64 47.5 -103.5t198.5 -93.5 q194 -71 281.5 -176.5t87.5 -257.5q0 -98 -39 -183t-111 -149t-183.5 -100.5t-248.5 -36.5q-161 0 -307.5 63t-233.5 156z" />
<glyph unicode="T" horiz-adv-x="1099" d="M84 1159l33 260h1089l-67 -260h-346l-142 -1159h-340l140 1159h-367z" />
<glyph unicode="U" horiz-adv-x="1331" d="M94 422q0 45 6 98l111 899h340l-113 -923q-6 -44 -6 -78q0 -103 47 -152t144 -49q215 0 245 266l115 936h342l-117 -942q-31 -245 -182 -378.5t-410 -133.5q-256 0 -389 120t-133 337z" />
<glyph unicode="V" horiz-adv-x="1218" d="M96 1419h350l117 -1138h10l400 1138h356l-577 -1419h-424z" />
<glyph unicode="W" horiz-adv-x="1730" d="M117 1419h332l-3 -1149h9l329 1149h357l43 -1147h8l295 1147h332l-410 -1419h-442l-45 1049h-9l-307 -1049h-432z" />
<glyph unicode="X" horiz-adv-x="1200" d="M-86 0l496 754l-291 665h356l150 -442h8l270 442h371l-463 -651l326 -768h-359l-182 526h-8l-301 -526h-373z" />
<glyph unicode="Y" horiz-adv-x="1210" d="M82 1419h360l179 -612h8l332 612h370l-563 -887l-63 -532h-343l66 530z" />
<glyph unicode="Z" horiz-adv-x="1105" d="M-41 0l29 254l743 903h-569l33 262h952l-31 -256l-729 -893h629l-66 -270h-991z" />
<glyph unicode="[" horiz-adv-x="665" d="M-39 -252l236 1938h546l-30 -244h-236l-178 -1452h236l-31 -242h-543z" />
<glyph unicode="\" horiz-adv-x="1077" d="M43 1618l274 82l715 -1866l-274 -84z" />
<glyph unicode="]" horiz-adv-x="665" d="M-45 -252l29 244h235l178 1450h-235l31 244h544l-237 -1938h-545z" />
<glyph unicode="^" horiz-adv-x="1130" d="M98 1079l480 650h299l294 -650h-311l-162 406l-266 -406h-334z" />
<glyph unicode="_" horiz-adv-x="1064" d="M-111 -350l35 254h1026l-37 -254h-1024z" />
<glyph unicode="`" horiz-adv-x="718" d="M61 1464l117 250l479 -299l-82 -166z" />
<glyph unicode="a" horiz-adv-x="1185" d="M43 408q0 160 48 294.5t131.5 226.5t198 143.5t245.5 51.5q231 0 454 -120l-98 -682q-4 -30 -4 -52q0 -26 6 -42q10 -30 47 -44l-92 -215q-215 18 -258 181q-66 -89 -151.5 -137t-176.5 -48q-162 0 -256 110.5t-94 332.5zM375 414q0 -209 131 -209q47 0 100 47t94 125 l74 483q-57 25 -117 25q-116 0 -199 -122.5t-83 -348.5z" />
<glyph unicode="b" horiz-adv-x="1214" d="M49 59l205 1461l332 34l-90 -641q74 103 166.5 157t181.5 54q140 0 222.5 -101t82.5 -312q0 -220 -81.5 -391t-223.5 -263t-320 -92q-247 0 -475 94zM399 231q64 -28 131 -28q111 0 198 137.5t87 359.5q0 162 -98 162q-121 0 -266 -262z" />
<glyph unicode="c" horiz-adv-x="960" d="M43 446q0 151 47 280t127 215t186 134.5t224 48.5q114 0 201 -31.5t169 -97.5l-141 -196q-49 40 -94.5 56.5t-102.5 16.5q-122 0 -200 -114t-78 -314q0 -223 182 -223q93 0 215 76l109 -213q-177 -119 -381 -119q-208 0 -335.5 126t-127.5 355z" />
<glyph unicode="d" horiz-adv-x="1202" d="M43 418q0 160 43 295.5t114.5 224t162 137.5t186.5 49q153 0 262 -106l76 536l323 -34l-213 -1520h-290v139q-61 -76 -140.5 -125t-169.5 -49q-160 0 -257 117.5t-97 335.5zM377 418q0 -213 135 -213q49 0 106.5 50t102.5 128l61 430q-64 72 -159 72q-99 0 -172.5 -120 t-73.5 -347z" />
<glyph unicode="e" horiz-adv-x="1085" d="M43 444q0 197 78 351.5t220 241.5t325 87q192 0 296.5 -80t104.5 -219q0 -367 -696 -426q17 -192 182 -192q68 0 126 19.5t134 70.5l125 -193q-85 -65 -195 -102t-217 -37q-237 0 -360 122t-123 357zM379 592q136 14 217.5 46t112 74t30.5 103q0 42 -27 66t-75 24 q-87 0 -160 -83t-98 -230z" />
<glyph unicode="f" horiz-adv-x="722" d="M-164 -217q130 48 187 119t77 215l107 743h-168l33 227h166l12 93q27 186 131 280t297 94q84 0 173.5 -25t162.5 -71l-111 -201q-95 56 -186 56q-62 0 -95.5 -32.5t-43.5 -113.5l-13 -80h258l-69 -227h-222l-104 -731q-35 -239 -152.5 -373t-357.5 -211z" />
<glyph unicode="g" horiz-adv-x="1204" d="M2 -334l111 219q169 -88 301 -88q229 0 262 240l16 117q-135 -150 -291 -150q-159 0 -256.5 116t-97.5 331q0 146 49.5 272t134 213.5t201.5 137.5t248 50q244 0 459 -120l-127 -916q-38 -281 -180.5 -412t-405.5 -131q-101 0 -216.5 32.5t-207.5 88.5zM381 451 q0 -107 36 -156t95 -49q53 0 112 44.5t103 117.5l64 452q-57 25 -121 25q-55 0 -105.5 -27.5t-92 -79t-66.5 -136.5t-25 -191z" />
<glyph unicode="h" horiz-adv-x="1173" d="M41 0l211 1520l334 34l-90 -641q159 211 358 211q110 0 174 -69t64 -205q0 -19 -9 -98l-104 -752h-326l97 705q6 44 6 71q0 47 -15 63.5t-47 16.5q-104 0 -243 -260l-84 -596h-326z" />
<glyph unicode="i" horiz-adv-x="565" d="M37 0l151 1087h328l-151 -1087h-328zM213 1475q0 79 54.5 131.5t138.5 52.5q85 0 139.5 -52.5t54.5 -131.5t-54.5 -132t-139.5 -53q-84 0 -138.5 53t-54.5 132z" />
<glyph unicode="j" horiz-adv-x="565" d="M-215 -215q130 47 188 117t78 215l137 970h328l-137 -958q-35 -242 -154 -375.5t-356 -208.5zM213 1475q0 79 54.5 131.5t138.5 52.5q85 0 139.5 -52.5t54.5 -131.5t-54.5 -132t-139.5 -53q-84 0 -138.5 53t-54.5 132z" />
<glyph unicode="k" horiz-adv-x="1191" d="M41 0l211 1520l334 34l-88 -626q162 196 379 196q130 0 211 -72t81 -186q0 -266 -301 -381l207 -485h-352l-197 524q171 56 243.5 125t72.5 158q0 42 -24.5 65t-67.5 23q-70 0 -146.5 -63.5t-146.5 -194.5l-90 -637h-326z" />
<glyph unicode="l" horiz-adv-x="593" d="M63 231q0 30 7 88l168 1201l333 34l-176 -1245q-2 -16 -2 -29q0 -24 7 -36q11 -19 40 -19q28 0 52 8l34 -229q-97 -39 -198 -39q-127 0 -196 66t-69 200z" />
<glyph unicode="m" horiz-adv-x="1726" d="M41 0l152 1087h284l-12 -202q84 124 170.5 181.5t185.5 57.5q93 0 156.5 -53t77.5 -158q156 211 346 211q110 0 175.5 -68.5t65.5 -207.5q0 -40 -6 -90l-106 -758h-328l101 707q6 47 6 75q0 43 -12 58.5t-37 15.5q-44 0 -103 -64t-125 -194l-84 -598h-325l98 707 q6 50 6 77q0 41 -11 56.5t-36 15.5q-44 0 -103 -64.5t-126 -197.5l-84 -594h-326z" />
<glyph unicode="n" horiz-adv-x="1173" d="M41 0l152 1087h284l-12 -202q168 239 383 239q114 0 179 -67.5t65 -204.5q0 -45 -9 -100l-104 -752h-326l97 705q6 44 6 71q0 47 -15 63.5t-47 16.5q-105 0 -243 -262l-84 -594h-326z" />
<glyph unicode="o" horiz-adv-x="1181" d="M43 434q0 108 24 209t73.5 188.5t119.5 152.5t168.5 102.5t214.5 37.5q222 0 348.5 -128t126.5 -347q0 -140 -39 -263.5t-112.5 -217.5t-188 -148.5t-256.5 -54.5q-223 0 -351 124t-128 345zM377 416q0 -110 37.5 -160.5t115.5 -50.5q68 0 120 46t80 119.5t41 149 t13 150.5q0 109 -37.5 161t-115.5 52q-63 0 -113 -41.5t-80 -110t-45.5 -149.5t-15.5 -166z" />
<glyph unicode="p" horiz-adv-x="1212" d="M-25 -455l218 1542h284l-10 -202q75 116 174.5 177.5t200.5 61.5q141 0 224 -100.5t83 -308.5q0 -163 -41.5 -304.5t-110 -238.5t-159 -152t-187.5 -55q-160 0 -274 117l-70 -502zM406 287q67 -84 161 -84q57 0 113 60t95.5 179t39.5 267q0 77 -29 115t-71 38 q-120 0 -264 -260z" />
<glyph unicode="q" horiz-adv-x="1200" d="M43 416q0 157 49 290t134 224.5t201 142.5t249 51q235 0 461 -120l-201 -1424l-334 -35l80 568q-62 -70 -138.5 -109t-152.5 -39q-157 0 -252.5 113.5t-95.5 337.5zM377 422q0 -115 37.5 -165t97.5 -50q53 0 110.5 47t98.5 125l67 481q-62 25 -124 25q-54 0 -104 -29 t-91.5 -84.5t-66.5 -146t-25 -203.5z" />
<glyph unicode="r" horiz-adv-x="808" d="M41 0l152 1087h284l-16 -247q67 144 154.5 213t179.5 69q57 0 100 -14l-98 -340q-46 16 -88 16q-167 -3 -273 -292l-69 -492h-326z" />
<glyph unicode="s" horiz-adv-x="997" d="M-37 147l164 181q61 -55 145 -91t158 -36q75 0 114.5 27t39.5 75q0 45 -39 75.5t-156 70.5q-303 106 -303 337q0 150 116.5 242t325.5 92q130 0 232 -35t194 -108l-141 -186q-69 52 -133 75t-139 23q-61 0 -92 -23t-31 -63q0 -37 35.5 -62.5t154.5 -70.5 q170 -64 240 -140.5t70 -191.5q0 -164 -125.5 -268.5t-358.5 -104.5q-136 0 -262.5 50.5t-208.5 131.5z" />
<glyph unicode="t" horiz-adv-x="788" d="M31 862l30 225h168l72 242l289 33l-37 -275h254l-66 -225h-221l-71 -506q-4 -26 -4 -46q1 -37 13 -55q18 -28 72 -28t127 37l86 -215q-133 -84 -307 -84q-154 0 -236.5 77.5t-82.5 233.5q0 27 8 97l68 489h-162z" />
<glyph unicode="u" horiz-adv-x="1161" d="M74 264q0 57 8 109l100 714h328l-100 -716q-4 -32 -4 -57q0 -36 10 -54q16 -30 63 -31q46 0 100.5 44.5t104.5 132.5l98 681h328l-154 -1087h-284l4 160q-140 -195 -338 -195q-126 0 -195 74.5t-69 224.5z" />
<glyph unicode="v" horiz-adv-x="1042" d="M53 1087h344l70 -835h8l313 835h342l-495 -1087h-387z" />
<glyph unicode="w" horiz-adv-x="1533" d="M74 1087h325l-8 -833h8l285 833h317l31 -829h8l242 829h320l-381 -1087h-392l-30 788h-8l-254 -788h-385z" />
<glyph unicode="x" horiz-adv-x="1034" d="M-113 0l430 573l-243 514h354l96 -335h8l189 335h360l-372 -505l272 -582h-358l-127 395h-9l-233 -395h-367z" />
<glyph unicode="y" horiz-adv-x="1042" d="M-43 -221q171 18 259 68.5t140 152.5h-106l-195 1087h338l82 -862h8l297 862h344l-452 -1075q-95 -224 -263 -339.5t-440 -127.5z" />
<glyph unicode="z" horiz-adv-x="931" d="M-61 0l30 233l566 609h-437l37 245h826l-33 -233l-557 -606h481l-64 -248h-849z" />
<glyph unicode="{" horiz-adv-x="665" d="M18 584l33 266q79 0 111 37t43 129l43 338q13 102 39.5 166t82.5 112t149 68t235 20l-29 -227q-90 0 -127 -27t-45 -96l-35 -285q-23 -183 -78.5 -266t-179.5 -98q0 -1 -1 -4t-1 -4q52 -10 89 -35t56.5 -60.5t28 -72t8.5 -78.5q0 -23 -4 -59l-43 -345q-8 -69 23.5 -95.5 t120.5 -26.5l-29 -228q-123 0 -207.5 18.5t-131 56t-66 85.5t-19.5 115q0 23 4 73l43 357q4 46 4 61q0 59 -26.5 82t-90.5 23z" />
<glyph unicode="|" horiz-adv-x="768" d="M133 -215l229 1874h306l-230 -1874h-305z" />
<glyph unicode="}" horiz-adv-x="665" d="M-57 -287l28 228q90 0 127 26.5t45 95.5l35 285q23 183 78.5 266.5t179.5 98.5q0 1 1 4t1 4q-52 10 -89 35t-56.5 60.5t-28 72t-8.5 78.5q0 23 4 59l43 344q8 69 -23 96t-120 27l28 227q123 0 207.5 -18.5t131 -55.5t66 -85t19.5 -115q0 -24 -4 -74l-43 -356 q-4 -46 -4 -62q0 -59 26.5 -81.5t90.5 -22.5l-33 -266q-79 0 -110.5 -37t-42.5 -129l-43 -338q-13 -102 -39.5 -166.5t-82.5 -112t-149 -68t-235 -20.5z" />
<glyph unicode="~" d="M37 580q32 54 64 95t75.5 80.5t98 61t116.5 21.5q61 0 115 -18.5t86 -41t70 -41t71 -18.5q48 0 78 26.5t63 81.5l168 -96q-34 -55 -65.5 -95t-75 -80t-97.5 -61.5t-116 -21.5t-116 19t-85 41.5t-69 41.5t-70 19q-49 0 -79 -26.5t-66 -82.5z" />
<glyph unicode="&#xa1;" horiz-adv-x="509" d="M-45 -420l158 914l262 45l-66 -959h-354zM96 862q0 77 54.5 132t132.5 55t132 -55t54 -132q0 -76 -54.5 -131t-131.5 -55t-132 55t-55 131z" />
<glyph unicode="&#xa2;" horiz-adv-x="1005" d="M51 446q0 268 138 449t346 219l36 303h234l-35 -307q122 -25 236 -115l-142 -196q-87 73 -196 73q-122 0 -200.5 -114t-78.5 -314q0 -223 182 -223q51 0 100 17.5t115 58.5l109 -213q-124 -84 -266 -109l-37 -305h-238l39 307q-158 33 -250 154.5t-92 314.5z" />
<glyph unicode="&#xa3;" horiz-adv-x="1140" d="M-20 0l28 236q107 29 147.5 84.5t53.5 168.5l16 144h-149l20 168h150l22 180q54 432 469 432q276 0 439 -211l-213 -143q-85 110 -203 110q-77 0 -117 -44t-53 -146l-25 -178h377l-22 -168h-373l-15 -123q-11 -96 -46 -156.5t-111 -97.5l-2 -8h657l-67 -248h-983z" />
<glyph unicode="&#xa4;" horiz-adv-x="1175" d="M57 291l164 166q-63 101 -63 243q0 143 61 244l-162 164l146 145l166 -166q102 60 241 60q138 0 240 -60l164 164l145 -145l-160 -162q66 -109 66 -244q0 -136 -68 -245l162 -162l-143 -143l-166 159q-99 -57 -240 -57q-139 0 -241 57l-166 -164zM410 700q0 -109 51 -168 t149 -59q97 0 148 59.5t51 167.5q0 107 -51 166.5t-148 59.5q-98 0 -149 -59.5t-51 -166.5z" />
<glyph unicode="&#xa5;" horiz-adv-x="1179" d="M94 1384h336l176 -579h8l316 579h350l-446 -663h210l-22 -168h-274l-17 -143h275l-21 -170h-274l-29 -240h-326l29 240h-270l18 170h273l16 143h-270l20 168h203z" />
<glyph unicode="&#xa6;" horiz-adv-x="768" d="M133 -215l92 745h305l-92 -745h-305zM272 913l90 746h306l-90 -746h-306z" />
<glyph unicode="&#xa7;" horiz-adv-x="1101" d="M31 -31l143 183q149 -99 285 -99q68 0 98.5 28t30.5 73q0 25 -13 42t-57.5 39.5t-132.5 53.5q-163 58 -228 129.5t-65 179.5q0 168 195 270q-84 81 -84 211q0 146 116 239t322 93q245 0 414 -133l-144 -182q-136 88 -268 88q-62 0 -92.5 -26t-30.5 -71q0 -38 38 -66 t163 -71q166 -59 229.5 -126.5t63.5 -168.5q0 -91 -55 -165t-146 -125q92 -83 92 -203q0 -147 -113.5 -240.5t-324.5 -93.5q-248 0 -436 141zM387 639q0 -34 18 -55.5t71.5 -48.5t172.5 -72q31 29 50.5 64.5t19.5 66.5q0 54 -47.5 85t-220.5 91q-64 -61 -64 -131z" />
<glyph unicode="&#xa8;" horiz-adv-x="954" d="M61 1470q0 68 50 116t120 48q72 0 121 -47.5t49 -116.5q0 -70 -49 -117.5t-121 -47.5q-70 0 -120 47.5t-50 117.5zM555 1470q0 69 49.5 116.5t120.5 47.5t119.5 -47.5t48.5 -116.5q0 -70 -48.5 -117.5t-119.5 -47.5t-120.5 47.5t-49.5 117.5z" />
<glyph unicode="&#xa9;" horiz-adv-x="1650" d="M133 885q0 188 92.5 346t252 249t349.5 91t349.5 -91t251.5 -248.5t92 -346.5q0 -188 -92 -344.5t-251 -247t-350 -90.5q-190 0 -349.5 90.5t-252 247.5t-92.5 344zM324 885q0 -219 143.5 -368.5t359.5 -149.5q215 0 359.5 150t144.5 368q0 144 -65 263t-181 188t-258 69 q-143 0 -258.5 -69t-180 -188t-64.5 -263zM467 887q0 186 101 294.5t261 108.5q159 0 269 -104l-101 -127q-69 53 -143 53q-70 0 -112 -54.5t-42 -170.5q0 -223 150 -223q91 0 166 63l92 -135q-121 -111 -277 -111q-168 0 -266 106.5t-98 299.5z" />
<glyph unicode="&#xaa;" horiz-adv-x="1228" d="M94 0l31 254h870l-30 -254h-871zM190 891q0 153 129 236t371 83h88l6 54q5 43 -27 65.5t-108 22.5q-99 0 -260 -52l-43 191q201 63 365 63q182 0 262 -59.5t80 -189.5q0 -18 -4 -68l-43 -328q-6 -47 3.5 -67.5t39.5 -28.5l-31 -195q-109 2 -172 34.5t-86 103.5 q-58 -62 -135 -96.5t-156 -34.5q-125 0 -202 72.5t-77 193.5zM489 911q0 -94 82 -94q94 0 168 96l19 127h-80q-189 0 -189 -129z" />
<glyph unicode="&#xab;" horiz-adv-x="1284" d="M59 489l29 207l457 449l178 -144l-322 -413l203 -422l-217 -133zM606 489l29 207l457 449l178 -144l-322 -413l203 -422l-217 -133z" />
<glyph unicode="&#xac;" d="M76 526l30 252h895l-71 -567h-271l37 315h-620z" />
<glyph unicode="&#xad;" horiz-adv-x="835" d="M82 514l27 254h655l-29 -254h-653z" />
<glyph unicode="&#xae;" horiz-adv-x="1308" d="M88 989q0 239 163 401t404 162q159 0 288 -74t202.5 -203t73.5 -286q0 -156 -73.5 -284.5t-202.5 -201.5t-288 -73q-119 0 -224 43t-180.5 117t-119 178t-43.5 221zM250 989q0 -181 114.5 -300.5t290.5 -119.5t290 119.5t114 300.5q0 183 -114 304.5t-290 121.5 t-290.5 -121.5t-114.5 -304.5zM436 717v581h178q275 0 275 -180q0 -57 -32 -98t-87 -62l158 -241h-170l-127 211h-47v-211h-148zM584 1047h47q106 0 106 75q0 66 -108 66h-45v-141z" />
<glyph unicode="&#xaf;" horiz-adv-x="778" d="M61 1346l31 227h625l-29 -227h-627z" />
<glyph unicode="&#xb0;" horiz-adv-x="1050" d="M143 1079q0 171 109 274t289 103q142 0 241 -90t99 -229q0 -170 -109.5 -274.5t-286.5 -104.5q-143 0 -242.5 91t-99.5 230zM369 1090q0 -65 36 -102.5t93 -37.5q70 0 113.5 47t43.5 129q0 66 -36.5 104t-92.5 38q-71 0 -114 -47t-43 -131z" />
<glyph unicode="&#xb1;" d="M12 0l29 248h893l-29 -248h-893zM80 555l31 248h309l39 321h274l-41 -321h312l-31 -248h-311l-25 -207h-275l27 207h-309z" />
<glyph unicode="&#xb2;" horiz-adv-x="819" d="M88 645l21 158q179 144 274.5 236.5t124.5 141.5t29 95q0 35 -21.5 55.5t-58.5 20.5q-80 0 -164 -84l-133 112q156 156 350 156q131 0 203.5 -67t72.5 -169q0 -63 -30.5 -125t-93 -125.5t-120.5 -111t-151 -115.5h369l-47 -178h-625z" />
<glyph unicode="&#xb3;" horiz-adv-x="819" d="M55 768l140 117q85 -82 180 -82q66 0 102.5 35t36.5 92q0 45 -32.5 70.5t-98.5 25.5h-80l49 162h54q62 0 94 27t32 75q0 35 -21.5 54.5t-61.5 19.5q-89 0 -195 -74l-102 127q157 119 335 119q137 0 213 -57t76 -144q0 -75 -48 -133.5t-142 -85.5l-2 -6q79 -15 125.5 -68 t46.5 -124q0 -122 -101 -204.5t-268 -82.5q-101 0 -190.5 36.5t-141.5 100.5z" />
<glyph unicode="&#xb4;" horiz-adv-x="718" d="M61 1413l480 297l116 -248l-516 -215z" />
<glyph unicode="&#xb5;" horiz-adv-x="1171" d="M-25 -451l218 1538h327l-100 -716q-11 -81 5.5 -111.5t63.5 -30.5q45 0 99 44.5t106 132.5l99 681h327l-102 -720q-14 -104 -14 -199q0 -98 12 -168l-305 -35q-25 84 -25 185q-56 -83 -125 -130t-131 -47q-85 0 -139 72l-6 -6q34 -66 34 -184q0 -64 -8 -121l-22 -154z " />
<glyph unicode="&#xb6;" horiz-adv-x="1615" d="M176 963q0 219 153 337.5t445 118.5h721l-227 -1849l-289 -23l201 1645h-183l-133 -1116q-23 -194 -87.5 -322t-165 -201.5t-259.5 -123.5l-84 237q149 53 214.5 131.5t84.5 220.5l64 523q-143 5 -247.5 63t-156 150.5t-51.5 208.5z" />
<glyph unicode="&#xb7;" horiz-adv-x="509" d="M68 672q0 77 54 131.5t132 54.5t132 -54.5t54 -131.5q0 -76 -54.5 -131.5t-131.5 -55.5t-131.5 55.5t-54.5 131.5z" />
<glyph unicode="&#xb8;" horiz-adv-x="690" d="M61 -469l97 150q73 -41 143 -41q88 0 88 69q0 34 -37 49t-141 15l72 260h172l-17 -131q89 -13 140 -66.5t51 -128.5q0 -108 -85 -177t-227 -69q-69 0 -138 20.5t-118 49.5z" />
<glyph unicode="&#xb9;" horiz-adv-x="819" d="M172 1339l346 181h203l-107 -875h-235l78 635l-193 -100z" />
<glyph unicode="&#xba;" horiz-adv-x="1228" d="M76 0l30 254h873l-31 -254h-872zM201 1018q0 234 133 386t358 152q186 0 299 -108.5t113 -284.5q0 -112 -33 -209t-94.5 -170t-155.5 -115t-209 -42q-188 0 -299.5 105t-111.5 286zM485 1012q0 -181 138 -181q52 0 91.5 29t62 78.5t33.5 108.5t11 127q0 92 -38 136 t-101 44q-69 0 -115 -50.5t-64 -124.5t-18 -167z" />
<glyph unicode="&#xbb;" horiz-adv-x="1284" d="M14 176l322 414l-203 422l217 133l328 -457l-29 -207l-456 -448zM561 176l322 414l-203 422l217 133l330 -457l-31 -207l-455 -448z" />
<glyph unicode="&#xbc;" horiz-adv-x="1925" d="M180 1262l346 180h203l-106 -875h-236l78 635l-193 -100zM352 -78l1059 1643l195 -107l-1061 -1640zM1104 174l18 156l299 563l193 -68l-242 -477h133l60 197h188l-22 -197h94l-23 -174h-94l-20 -174h-228l21 174h-377z" />
<glyph unicode="&#xbd;" horiz-adv-x="1925" d="M180 1262l346 180h203l-106 -875h-236l78 635l-193 -100zM352 -78l1059 1643l195 -107l-1061 -1640zM1153 0l21 158q179 144 274.5 236.5t124.5 141.5t29 95q0 35 -21.5 55.5t-58.5 20.5q-80 0 -164 -84l-133 112q156 156 350 156q131 0 203.5 -67t72.5 -169 q0 -63 -30.5 -125t-93 -125.5t-120.5 -111t-151 -115.5h369l-47 -178h-625z" />
<glyph unicode="&#xbe;" horiz-adv-x="1925" d="M43 690l139 117q85 -82 180 -82q66 0 103 35t37 92q0 45 -32.5 70.5t-98.5 25.5h-80l49 162h53q62 0 94.5 27t32.5 75q0 35 -22 54.5t-62 19.5q-88 0 -194 -74l-103 127q157 119 336 119q137 0 213 -57t76 -144q0 -75 -48.5 -133.5t-142.5 -85.5l-2 -6q79 -15 125.5 -68 t46.5 -124q0 -122 -100.5 -204.5t-267.5 -82.5q-101 0 -190.5 36.5t-141.5 100.5zM352 -78l1059 1643l195 -107l-1061 -1640zM1104 174l18 156l299 563l193 -68l-242 -477h133l60 197h188l-22 -197h94l-23 -174h-94l-20 -174h-228l21 174h-377z" />
<glyph unicode="&#xbf;" horiz-adv-x="1021" d="M-43 -143q0 81 26 144t67 102t91 69.5t100 55.5t91 51.5t67.5 65.5t26.5 89q0 13 -4 45l285 43q14 -58 14 -100q0 -72 -23 -129t-60 -93.5t-81.5 -66.5t-89 -53.5t-81.5 -47t-60 -55.5t-23 -71q0 -50 32.5 -77.5t90.5 -27.5q135 0 258 129l188 -166q-111 -113 -230 -167 t-263 -54q-198 0 -310 90.5t-112 223.5zM401 860q0 77 55 133t132 56q76 0 130 -56t54 -133q0 -75 -54 -129.5t-130 -54.5q-78 0 -132.5 54.5t-54.5 129.5z" />
<glyph unicode="&#xc0;" horiz-adv-x="1218" d="M-104 0l610 1419h412l260 -1419h-357l-37 305h-411l-111 -305h-366zM442 1745l115 250l475 -287l-78 -170zM457 551h303l-74 600h-8z" />
<glyph unicode="&#xc1;" horiz-adv-x="1218" d="M-104 0l610 1419h412l260 -1419h-357l-37 305h-411l-111 -305h-366zM449 1710l475 287l116 -250l-512 -207zM457 551h303l-74 600h-8z" />
<glyph unicode="&#xc2;" horiz-adv-x="1218" d="M-104 0l610 1419h412l260 -1419h-357l-37 305h-411l-111 -305h-366zM346 1673l322 260h198l262 -266l-133 -135l-245 176l-295 -176zM457 551h303l-74 600h-8z" />
<glyph unicode="&#xc3;" horiz-adv-x="1218" d="M-104 0l610 1419h412l260 -1419h-357l-37 305h-411l-111 -305h-366zM356 1663q123 240 291 240q44 0 82 -13.5t59.5 -29.5t46 -29.5t44.5 -13.5q33 0 56.5 19.5t55.5 66.5l154 -78q-121 -240 -291 -240q-44 0 -82 13.5t-59 29.5t-45.5 29.5t-44.5 13.5q-33 0 -56 -19 t-57 -67zM457 551h303l-74 600h-8z" />
<glyph unicode="&#xc4;" horiz-adv-x="1218" d="M-104 0l610 1419h412l260 -1419h-357l-37 305h-411l-111 -305h-366zM340 1716q0 67 50.5 115.5t119.5 48.5q72 0 121 -48t49 -116q0 -71 -49 -119.5t-121 -48.5q-70 0 -120 49t-50 119zM457 551h303l-74 600h-8zM815 1716q0 67 50.5 115.5t119.5 48.5q72 0 121 -48 t49 -116q0 -71 -49 -119.5t-121 -48.5q-70 0 -120 49t-50 119z" />
<glyph unicode="&#xc5;" horiz-adv-x="1218" d="M-104 0l610 1419h412l260 -1419h-357l-37 305h-411l-111 -305h-366zM457 551h303l-74 600h-8zM467 1759q0 125 85 209t220 84q117 0 192.5 -69t75.5 -175q0 -128 -85 -212.5t-216 -84.5q-123 0 -197.5 70t-74.5 178zM659 1765q0 -39 24.5 -61.5t64.5 -22.5 q45 0 72.5 31.5t27.5 87.5q0 38 -24 61t-60 23q-47 0 -76 -32t-29 -87z" />
<glyph unicode="&#xc6;" horiz-adv-x="1710" d="M-121 0l733 1419h1080l-66 -241h-551l27 -338h500l-29 -242h-455l31 -354h471l-29 -244h-743l-19 305h-438l-139 -305h-373zM498 551h321l-33 598h-10z" />
<glyph unicode="&#xc7;" horiz-adv-x="1175" d="M76 575q0 143 31.5 274.5t94 241.5t148 192t199.5 127.5t244 45.5q140 0 246.5 -41t193.5 -131l-186 -182q-54 53 -109 76.5t-131 23.5q-90 0 -164 -54.5t-120 -144.5t-70.5 -200.5t-24.5 -227.5q0 -346 246 -346q85 0 157.5 30t149.5 89l137 -211q-188 -159 -440 -170 l-8 -65q90 -13 140 -66.5t50 -128.5q0 -108 -84 -177t-227 -69q-69 0 -138 20.5t-116 49.5l94 150q73 -41 143 -41q91 0 91 69q0 34 -37.5 49t-141.5 15l58 207q-199 39 -312.5 190.5t-113.5 404.5z" />
<glyph unicode="&#xc8;" horiz-adv-x="1073" d="M59 0l172 1419h875l-66 -241h-499l-41 -338h436l-29 -238h-436l-43 -356h533l-29 -246h-873zM410 1745l114 250l475 -287l-77 -170z" />
<glyph unicode="&#xc9;" horiz-adv-x="1073" d="M59 0l172 1419h875l-66 -241h-499l-41 -338h436l-29 -238h-436l-43 -356h533l-29 -246h-873zM422 1708l475 287l117 -250l-512 -207z" />
<glyph unicode="&#xca;" horiz-adv-x="1073" d="M59 0l172 1419h875l-66 -241h-499l-41 -338h436l-29 -238h-436l-43 -356h533l-29 -246h-873zM303 1673l322 260h198l262 -266l-133 -135l-245 176l-295 -176z" />
<glyph unicode="&#xcb;" horiz-adv-x="1073" d="M59 0l172 1419h875l-66 -241h-499l-41 -338h436l-29 -238h-436l-43 -356h533l-29 -246h-873zM293 1716q0 67 50.5 115.5t119.5 48.5q72 0 121 -48t49 -116q0 -71 -49 -119.5t-121 -48.5q-70 0 -120 49t-50 119zM768 1716q0 67 50.5 115.5t119.5 48.5q72 0 121 -48 t49 -116q0 -71 -49 -119.5t-121 -48.5q-70 0 -120 49t-50 119z" />
<glyph unicode="&#xcc;" horiz-adv-x="600" d="M59 0l172 1419h340l-172 -1419h-340zM137 1745l115 250l475 -287l-78 -170z" />
<glyph unicode="&#xcd;" horiz-adv-x="600" d="M59 0l172 1419h340l-172 -1419h-340zM139 1708l475 287l117 -250l-512 -207z" />
<glyph unicode="&#xce;" horiz-adv-x="600" d="M39 1673l321 260h199l262 -266l-133 -135l-246 176l-295 -176zM59 0l172 1419h340l-172 -1419h-340z" />
<glyph unicode="&#xcf;" horiz-adv-x="600" d="M31 1716q0 67 50.5 115.5t119.5 48.5q72 0 121 -48t49 -116q0 -71 -49 -119.5t-121 -48.5q-70 0 -120 49t-50 119zM59 0l172 1419h340l-172 -1419h-340zM506 1716q0 67 50.5 115.5t119.5 48.5q72 0 121 -48t49 -116q0 -71 -49 -119.5t-121 -48.5q-70 0 -120 49t-50 119z " />
<glyph unicode="&#xd0;" horiz-adv-x="1351" d="M18 621l23 204h127l74 594h399q316 0 491 -144.5t175 -422.5q0 -401 -206 -626.5t-587 -225.5h-446l75 621h-125zM436 246h111q88 0 161 36.5t129 109t87.5 190t31.5 270.5q0 166 -79 244t-232 78h-94l-43 -349h283l-25 -204h-285z" />
<glyph unicode="&#xd1;" horiz-adv-x="1353" d="M59 0l172 1419h420l277 -1097h8q-4 54 -4 106q0 239 35 526l57 465h301l-172 -1419h-430l-268 1096h-9q3 -38 3 -111q0 -273 -29 -500l-60 -485h-301zM422 1663q123 240 291 240q44 0 82 -13.5t59 -29.5t45.5 -29.5t44.5 -13.5q33 0 57 19.5t56 66.5l153 -78 q-121 -240 -290 -240q-44 0 -82 13.5t-59.5 29.5t-46 29.5t-44.5 13.5q-33 0 -56 -19t-57 -67z" />
<glyph unicode="&#xd2;" horiz-adv-x="1411" d="M76 571q0 135 26 260.5t82.5 240t138.5 199.5t202.5 135t265.5 50q265 0 420 -159.5t155 -446.5q0 -135 -26 -261t-83 -240.5t-139 -199t-203 -134.5t-266 -50q-266 0 -419.5 159t-153.5 447zM426 532q0 -168 57 -243.5t172 -75.5q63 0 115.5 25t88.5 65.5t64.5 97.5 t45 117t27 128t14.5 125.5t4 115.5q0 168 -56.5 243.5t-173.5 75.5q-85 0 -151.5 -47.5t-104 -119t-62 -166.5t-32.5 -177t-8 -164zM541 1745l114 250l475 -287l-77 -170z" />
<glyph unicode="&#xd3;" horiz-adv-x="1411" d="M76 571q0 135 26 260.5t82.5 240t138.5 199.5t202.5 135t265.5 50q265 0 420 -159.5t155 -446.5q0 -135 -26 -261t-83 -240.5t-139 -199t-203 -134.5t-266 -50q-266 0 -419.5 159t-153.5 447zM426 532q0 -168 57 -243.5t172 -75.5q63 0 115.5 25t88.5 65.5t64.5 97.5 t45 117t27 128t14.5 125.5t4 115.5q0 168 -56.5 243.5t-173.5 75.5q-85 0 -151.5 -47.5t-104 -119t-62 -166.5t-32.5 -177t-8 -164zM559 1708l475 287l117 -250l-512 -207z" />
<glyph unicode="&#xd4;" horiz-adv-x="1411" d="M76 571q0 135 26 260.5t82.5 240t138.5 199.5t202.5 135t265.5 50q265 0 420 -159.5t155 -446.5q0 -135 -26 -261t-83 -240.5t-139 -199t-203 -134.5t-266 -50q-266 0 -419.5 159t-153.5 447zM426 532q0 -168 57 -243.5t172 -75.5q63 0 115.5 25t88.5 65.5t64.5 97.5 t45 117t27 128t14.5 125.5t4 115.5q0 168 -56.5 243.5t-173.5 75.5q-85 0 -151.5 -47.5t-104 -119t-62 -166.5t-32.5 -177t-8 -164zM444 1673l322 260h199l262 -266l-133 -135l-246 176l-295 -176z" />
<glyph unicode="&#xd5;" horiz-adv-x="1411" d="M76 571q0 135 26 260.5t82.5 240t138.5 199.5t202.5 135t265.5 50q265 0 420 -159.5t155 -446.5q0 -135 -26 -261t-83 -240.5t-139 -199t-203 -134.5t-266 -50q-266 0 -419.5 159t-153.5 447zM426 532q0 -168 57 -243.5t172 -75.5q63 0 115.5 25t88.5 65.5t64.5 97.5 t45 117t27 128t14.5 125.5t4 115.5q0 168 -56.5 243.5t-173.5 75.5q-85 0 -151.5 -47.5t-104 -119t-62 -166.5t-32.5 -177t-8 -164zM453 1663q123 240 290 240q44 0 82 -13.5t59.5 -29.5t46 -29.5t44.5 -13.5q33 0 56.5 19.5t55.5 66.5l154 -78q-121 -240 -291 -240 q-44 0 -82 13.5t-59 29.5t-45.5 29.5t-44.5 13.5q-33 0 -56 -19t-57 -67z" />
<glyph unicode="&#xd6;" horiz-adv-x="1411" d="M76 571q0 135 26 260.5t82.5 240t138.5 199.5t202.5 135t265.5 50q265 0 420 -159.5t155 -446.5q0 -135 -26 -261t-83 -240.5t-139 -199t-203 -134.5t-266 -50q-266 0 -419.5 159t-153.5 447zM426 532q0 -168 57 -243.5t172 -75.5q63 0 115.5 25t88.5 65.5t64.5 97.5 t45 117t27 128t14.5 125.5t4 115.5q0 168 -56.5 243.5t-173.5 75.5q-85 0 -151.5 -47.5t-104 -119t-62 -166.5t-32.5 -177t-8 -164zM436 1716q0 67 50.5 115.5t119.5 48.5q72 0 121 -48t49 -116q0 -71 -49 -119.5t-121 -48.5q-70 0 -120 49t-50 119zM911 1716 q0 67 50.5 115.5t119.5 48.5q72 0 121 -48t49 -116q0 -71 -49 -119.5t-121 -48.5q-70 0 -120 49t-50 119z" />
<glyph unicode="&#xd7;" d="M86 389l264 234l-203 233l203 180l203 -233l262 237l166 -190l-262 -236l203 -229l-203 -180l-203 229l-264 -235z" />
<glyph unicode="&#xd8;" horiz-adv-x="1411" d="M76 571q0 135 26 260.5t82.5 240t138.5 199.5t202.5 135t265.5 50q18 0 110 -10l107 250l249 -68l-118 -272q109 -75 168 -203.5t59 -302.5q0 -135 -26 -261t-83 -240.5t-139 -199t-203 -134.5t-266 -50q-50 0 -108 10l-109 -254l-250 68l121 270q-227 157 -227 512z M416 532q0 -142 51 -215l373 885q-36 4 -56 4q-62 0 -114.5 -25t-89.5 -66t-66 -98t-47 -117.5t-30 -128t-16.5 -125.5t-4.5 -114zM604 217q31 -4 51 -4q73 0 132 32.5t98 88.5t67 123.5t42.5 146.5t21 147.5t6.5 135.5q0 136 -51 209z" />
<glyph unicode="&#xd9;" horiz-adv-x="1331" d="M94 422q0 45 6 98l111 899h340l-113 -923q-6 -44 -6 -78q0 -103 47 -152t144 -49q215 0 245 266l115 936h342l-117 -942q-31 -245 -182 -378.5t-410 -133.5q-256 0 -389 120t-133 337zM496 1745l114 250l475 -287l-77 -170z" />
<glyph unicode="&#xda;" horiz-adv-x="1331" d="M94 422q0 45 6 98l111 899h340l-113 -923q-6 -44 -6 -78q0 -103 47 -152t144 -49q215 0 245 266l115 936h342l-117 -942q-31 -245 -182 -378.5t-410 -133.5q-256 0 -389 120t-133 337zM512 1708l475 287l117 -250l-512 -207z" />
<glyph unicode="&#xdb;" horiz-adv-x="1331" d="M94 422q0 45 6 98l111 899h340l-113 -923q-6 -44 -6 -78q0 -103 47 -152t144 -49q215 0 245 266l115 936h342l-117 -942q-31 -245 -182 -378.5t-410 -133.5q-256 0 -389 120t-133 337zM406 1673l321 260h199l262 -266l-133 -135l-246 176l-295 -176z" />
<glyph unicode="&#xdc;" horiz-adv-x="1331" d="M94 422q0 45 6 98l111 899h340l-113 -923q-6 -44 -6 -78q0 -103 47 -152t144 -49q215 0 245 266l115 936h342l-117 -942q-31 -245 -182 -378.5t-410 -133.5q-256 0 -389 120t-133 337zM395 1716q0 67 50.5 115.5t119.5 48.5q72 0 121 -48t49 -116q0 -71 -49 -119.5 t-121 -48.5q-70 0 -120 49t-50 119zM870 1716q0 67 50.5 115.5t119.5 48.5q72 0 121 -48t49 -116q0 -71 -49 -119.5t-121 -48.5q-70 0 -120 49t-50 119z" />
<glyph unicode="&#xdd;" horiz-adv-x="1210" d="M82 1419h360l179 -612h8l332 612h370l-563 -887l-63 -532h-343l66 530zM453 1708l475 287l116 -250l-512 -207z" />
<glyph unicode="&#xde;" horiz-adv-x="1212" d="M59 0l172 1419h340l-28 -233h96q278 0 422.5 -109.5t144.5 -302.5q0 -245 -165.5 -391.5t-444.5 -146.5h-170l-27 -236h-340zM457 481h129q123 0 196.5 76.5t73.5 206.5q0 91 -59.5 135.5t-186.5 44.5h-96z" />
<glyph unicode="&#xdf;" horiz-adv-x="1222" d="M-207 -217q129 47 185.5 117t76.5 217l127 905q39 283 168.5 407.5t370.5 124.5q191 0 298 -80.5t107 -211.5q0 -49 -14 -89.5t-37 -68.5t-50.5 -52t-55 -44t-50.5 -39.5t-37 -44.5t-14 -54q0 -35 32 -73.5t77.5 -78t91 -86t77.5 -116.5t32 -151q0 -172 -120.5 -286 t-301.5 -114q-77 0 -161 24t-138 64l133 209q63 -45 129 -45q55 0 91 35.5t36 103.5q0 39 -15.5 73t-39.5 60.5t-53.5 51.5t-59.5 51t-54 55t-39.5 68t-15.5 84q0 62 18 110t44.5 76t57.5 55.5t57.5 50t44.5 58t18 80.5t-27.5 70.5t-79.5 25.5q-74 0 -118 -50.5t-62 -172.5 l-131 -932q-26 -183 -90 -305t-165.5 -195.5t-260.5 -124.5z" />
<glyph unicode="&#xe0;" horiz-adv-x="1185" d="M43 408q0 160 48 294.5t131.5 226.5t198 143.5t245.5 51.5q231 0 454 -120l-98 -682q-9 -64 1.5 -93.5t47.5 -44.5l-92 -215q-215 18 -258 181q-66 -89 -151.5 -137t-176.5 -48q-162 0 -256 110.5t-94 332.5zM375 414q0 -209 131 -209q47 0 100 47t94 125l74 483 q-57 25 -117 25q-116 0 -199 -122.5t-83 -348.5zM416 1464l116 250l480 -299l-82 -166z" />
<glyph unicode="&#xe1;" horiz-adv-x="1185" d="M43 408q0 160 48 294.5t131.5 226.5t198 143.5t245.5 51.5q231 0 454 -120l-98 -682q-9 -64 1.5 -93.5t47.5 -44.5l-92 -215q-215 18 -258 181q-66 -89 -151.5 -137t-176.5 -48q-162 0 -256 110.5t-94 332.5zM375 414q0 -209 131 -209q47 0 100 47t94 125l74 483 q-57 25 -117 25q-116 0 -199 -122.5t-83 -348.5zM414 1413l479 297l117 -248l-516 -215z" />
<glyph unicode="&#xe2;" horiz-adv-x="1185" d="M43 408q0 160 48 294.5t131.5 226.5t198 143.5t245.5 51.5q231 0 454 -120l-98 -682q-9 -64 1.5 -93.5t47.5 -44.5l-92 -215q-215 18 -258 181q-66 -89 -151.5 -137t-176.5 -48q-162 0 -256 110.5t-94 332.5zM317 1391l330 280h199l254 -287l-135 -133l-240 195 l-303 -195zM375 414q0 -209 131 -209q47 0 100 47t94 125l74 483q-57 25 -117 25q-116 0 -199 -122.5t-83 -348.5z" />
<glyph unicode="&#xe3;" horiz-adv-x="1185" d="M43 408q0 160 48 294.5t131.5 226.5t198 143.5t245.5 51.5q231 0 454 -120l-98 -682q-9 -64 1.5 -93.5t47.5 -44.5l-92 -215q-215 18 -258 181q-66 -89 -151.5 -137t-176.5 -48q-162 0 -256 110.5t-94 332.5zM322 1376q123 240 292 240q44 0 82 -13.5t59 -29.5t45 -29.5 t44 -13.5q33 0 56.5 19.5t57.5 66.5l154 -78q-55 -107 -129.5 -174.5t-163.5 -67.5q-44 0 -82 14t-59 30t-45.5 30t-44.5 14q-33 0 -56 -19t-57 -67zM375 414q0 -209 131 -209q47 0 100 47t94 125l74 483q-57 25 -117 25q-116 0 -199 -122.5t-83 -348.5z" />
<glyph unicode="&#xe4;" horiz-adv-x="1185" d="M43 408q0 160 48 294.5t131.5 226.5t198 143.5t245.5 51.5q231 0 454 -120l-98 -682q-9 -64 1.5 -93.5t47.5 -44.5l-92 -215q-215 18 -258 181q-66 -89 -151.5 -137t-176.5 -48q-162 0 -256 110.5t-94 332.5zM303 1470q0 68 50 116t120 48q72 0 121 -47.5t49 -116.5 q0 -70 -49 -117.5t-121 -47.5q-70 0 -120 47.5t-50 117.5zM375 414q0 -209 131 -209q47 0 100 47t94 125l74 483q-57 25 -117 25q-116 0 -199 -122.5t-83 -348.5zM797 1470q0 69 49.5 116.5t120.5 47.5t119.5 -47.5t48.5 -116.5q0 -70 -48.5 -117.5t-119.5 -47.5 t-120.5 47.5t-49.5 117.5z" />
<glyph unicode="&#xe5;" horiz-adv-x="1185" d="M43 408q0 160 48 294.5t131.5 226.5t198 143.5t245.5 51.5q231 0 454 -120l-98 -682q-9 -64 1.5 -93.5t47.5 -44.5l-92 -215q-215 18 -258 181q-66 -89 -151.5 -137t-176.5 -48q-162 0 -256 110.5t-94 332.5zM375 414q0 -209 131 -209q47 0 100 47t94 125l74 483 q-57 25 -117 25q-116 0 -199 -122.5t-83 -348.5zM438 1479q0 126 85 210.5t220 84.5q117 0 194 -69.5t77 -176.5q0 -127 -86 -212t-217 -85q-122 0 -197.5 71t-75.5 177zM633 1485q0 -40 23 -62t63 -22q45 0 72.5 32t27.5 87q0 38 -24 61t-60 23q-46 0 -74 -32t-28 -87z" />
<glyph unicode="&#xe6;" horiz-adv-x="1687" d="M-2 266q0 188 149 288.5t422 100.5h129l9 68q11 83 -29 121.5t-150 38.5t-290 -58l-45 217q232 82 399 82q121 0 203 -43.5t110 -122.5q70 81 170.5 123.5t208.5 42.5q181 0 283 -80.5t102 -218.5q0 -178 -171.5 -287t-524.5 -139q17 -192 182 -192q67 0 124.5 19.5 t133.5 70.5l127 -193q-84 -65 -195 -102t-219 -37q-274 0 -393 185q-139 -185 -395 -185q-171 0 -255.5 82.5t-84.5 218.5zM342 295q0 -96 117 -96q58 0 120.5 38.5t94.5 94.5q-6 66 6 135h-62q-151 0 -213.5 -41.5t-62.5 -130.5zM981 592q196 21 278 75t82 148 q0 42 -26.5 66t-75.5 24q-87 0 -160 -83t-98 -230z" />
<glyph unicode="&#xe7;" horiz-adv-x="960" d="M43 446q0 151 47 280t127 215t186 134.5t224 48.5q114 0 201 -31.5t169 -97.5l-141 -196q-49 40 -94.5 56.5t-102.5 16.5q-122 0 -200 -114t-78 -314q0 -223 182 -223q93 0 215 76l109 -213q-159 -108 -338 -117l-8 -65q90 -13 140 -66.5t50 -128.5q0 -108 -84 -177 t-227 -69q-68 0 -137.5 20.5t-116.5 49.5l94 150q73 -41 143 -41q91 0 91 69q0 34 -37.5 49t-141.5 15l58 209q-153 35 -241.5 155t-88.5 309z" />
<glyph unicode="&#xe8;" horiz-adv-x="1085" d="M43 444q0 197 78 351.5t220 241.5t325 87q192 0 296.5 -80t104.5 -219q0 -367 -696 -426q17 -192 182 -192q68 0 126 19.5t134 70.5l125 -193q-85 -65 -195 -102t-217 -37q-237 0 -360 122t-123 357zM379 592q136 14 217.5 46t112 74t30.5 103q0 42 -27 66t-75 24 q-87 0 -160 -83t-98 -230zM387 1464l117 250l479 -299l-82 -166z" />
<glyph unicode="&#xe9;" horiz-adv-x="1085" d="M43 444q0 197 78 351.5t220 241.5t325 87q192 0 296.5 -80t104.5 -219q0 -367 -696 -426q17 -192 182 -192q68 0 126 19.5t134 70.5l125 -193q-85 -65 -195 -102t-217 -37q-237 0 -360 122t-123 357zM379 592q136 14 217.5 46t112 74t30.5 103q0 42 -27 66t-75 24 q-87 0 -160 -83t-98 -230zM391 1413l479 297l117 -248l-516 -215z" />
<glyph unicode="&#xea;" horiz-adv-x="1085" d="M43 444q0 197 78 351.5t220 241.5t325 87q192 0 296.5 -80t104.5 -219q0 -367 -696 -426q17 -192 182 -192q68 0 126 19.5t134 70.5l125 -193q-85 -65 -195 -102t-217 -37q-237 0 -360 122t-123 357zM285 1391l329 280h199l254 -287l-135 -133l-240 195l-303 -195z M379 592q136 14 217.5 46t112 74t30.5 103q0 42 -27 66t-75 24q-87 0 -160 -83t-98 -230z" />
<glyph unicode="&#xeb;" horiz-adv-x="1085" d="M43 444q0 197 78 351.5t220 241.5t325 87q192 0 296.5 -80t104.5 -219q0 -367 -696 -426q17 -192 182 -192q68 0 126 19.5t134 70.5l125 -193q-85 -65 -195 -102t-217 -37q-237 0 -360 122t-123 357zM276 1470q0 68 50 116t120 48q72 0 121 -47.5t49 -116.5 q0 -70 -49 -117.5t-121 -47.5q-70 0 -120 47.5t-50 117.5zM379 592q136 14 217.5 46t112 74t30.5 103q0 42 -27 66t-75 24q-87 0 -160 -83t-98 -230zM770 1470q0 69 49.5 116.5t120.5 47.5t119.5 -47.5t48.5 -116.5q0 -70 -48.5 -117.5t-119.5 -47.5t-120.5 47.5 t-49.5 117.5z" />
<glyph unicode="&#xec;" horiz-adv-x="565" d="M37 0l151 1087h328l-151 -1087h-328zM117 1464l116 250l480 -299l-82 -166z" />
<glyph unicode="&#xed;" horiz-adv-x="565" d="M37 0l151 1087h328l-151 -1087h-328zM111 1413l479 297l117 -248l-517 -215z" />
<glyph unicode="&#xee;" horiz-adv-x="565" d="M2 1391l330 280h198l254 -287l-135 -133l-239 195l-304 -195zM37 0l151 1087h328l-151 -1087h-328z" />
<glyph unicode="&#xef;" horiz-adv-x="565" d="M-8 1470q0 68 50 116t120 48q72 0 121 -47.5t49 -116.5q0 -70 -49 -117.5t-121 -47.5q-70 0 -120 47.5t-50 117.5zM37 0l151 1087h328l-151 -1087h-328zM485 1470q0 69 49.5 116.5t120.5 47.5t119.5 -47.5t48.5 -116.5q0 -70 -48.5 -117.5t-119.5 -47.5t-120.5 47.5 t-49.5 117.5z" />
<glyph unicode="&#xf0;" horiz-adv-x="1181" d="M41 436q0 118 37 221.5t100 175t147.5 113t178.5 41.5q103 0 174 -33.5t135 -117.5l6 4q2 130 -35.5 218.5t-126.5 149.5l-151 -133l-195 94l142 129q-85 25 -162 41l98 215q146 -27 268 -71l166 151l148 -145l-115 -103q149 -101 208.5 -245t59.5 -389q0 -130 -27 -249 t-80 -216.5t-126 -169.5t-170 -112t-207 -40q-220 0 -346.5 125t-126.5 346zM371 426q0 -112 43 -170.5t118 -58.5q101 0 166 109t82 329q-71 119 -196 119q-95 0 -154 -84t-59 -244z" />
<glyph unicode="&#xf1;" horiz-adv-x="1173" d="M41 0l152 1087h284l-12 -202q168 239 383 239q114 0 179 -67.5t65 -204.5q0 -45 -9 -100l-104 -752h-326l97 705q6 44 6 71q0 47 -15 63.5t-47 16.5q-105 0 -243 -262l-84 -594h-326zM324 1376q123 240 292 240q44 0 82 -13.5t59 -29.5t45 -29.5t44 -13.5q33 0 57 19.5 t58 66.5l153 -78q-55 -107 -129.5 -174.5t-163.5 -67.5q-44 0 -82 14t-59 30t-45.5 30t-44.5 14q-33 0 -56 -19t-57 -67z" />
<glyph unicode="&#xf2;" horiz-adv-x="1181" d="M43 434q0 108 24 209t73.5 188.5t119.5 152.5t168.5 102.5t214.5 37.5q222 0 348.5 -128t126.5 -347q0 -140 -39 -263.5t-112.5 -217.5t-188 -148.5t-256.5 -54.5q-223 0 -351 124t-128 345zM377 416q0 -110 37.5 -160.5t115.5 -50.5q68 0 120 46t80 119.5t41 149 t13 150.5q0 109 -37.5 161t-115.5 52q-63 0 -113 -41.5t-80 -110t-45.5 -149.5t-15.5 -166zM408 1464l116 250l480 -299l-82 -166z" />
<glyph unicode="&#xf3;" horiz-adv-x="1181" d="M43 434q0 108 24 209t73.5 188.5t119.5 152.5t168.5 102.5t214.5 37.5q222 0 348.5 -128t126.5 -347q0 -140 -39 -263.5t-112.5 -217.5t-188 -148.5t-256.5 -54.5q-223 0 -351 124t-128 345zM377 416q0 -110 37.5 -160.5t115.5 -50.5q68 0 120 46t80 119.5t41 149 t13 150.5q0 109 -37.5 161t-115.5 52q-63 0 -113 -41.5t-80 -110t-45.5 -149.5t-15.5 -166zM416 1413l479 297l117 -248l-516 -215z" />
<glyph unicode="&#xf4;" horiz-adv-x="1181" d="M43 434q0 108 24 209t73.5 188.5t119.5 152.5t168.5 102.5t214.5 37.5q222 0 348.5 -128t126.5 -347q0 -140 -39 -263.5t-112.5 -217.5t-188 -148.5t-256.5 -54.5q-223 0 -351 124t-128 345zM307 1391l330 280h199l254 -287l-136 -133l-239 195l-303 -195zM377 416 q0 -110 37.5 -160.5t115.5 -50.5q68 0 120 46t80 119.5t41 149t13 150.5q0 109 -37.5 161t-115.5 52q-63 0 -113 -41.5t-80 -110t-45.5 -149.5t-15.5 -166z" />
<glyph unicode="&#xf5;" horiz-adv-x="1181" d="M43 434q0 108 24 209t73.5 188.5t119.5 152.5t168.5 102.5t214.5 37.5q222 0 348.5 -128t126.5 -347q0 -140 -39 -263.5t-112.5 -217.5t-188 -148.5t-256.5 -54.5q-223 0 -351 124t-128 345zM317 1376q123 240 293 240q44 0 82 -13.5t59 -29.5t45 -29.5t44 -13.5 q33 0 56.5 19.5t57.5 66.5l154 -78q-55 -107 -129.5 -174.5t-163.5 -67.5q-44 0 -82 14t-59 30t-45.5 30t-44.5 14q-33 0 -56 -19t-57 -67zM377 416q0 -110 37.5 -160.5t115.5 -50.5q68 0 120 46t80 119.5t41 149t13 150.5q0 109 -37.5 161t-115.5 52q-63 0 -113 -41.5 t-80 -110t-45.5 -149.5t-15.5 -166z" />
<glyph unicode="&#xf6;" horiz-adv-x="1181" d="M43 434q0 108 24 209t73.5 188.5t119.5 152.5t168.5 102.5t214.5 37.5q222 0 348.5 -128t126.5 -347q0 -140 -39 -263.5t-112.5 -217.5t-188 -148.5t-256.5 -54.5q-223 0 -351 124t-128 345zM297 1470q0 68 50 116t120 48q72 0 121 -47.5t49 -116.5q0 -70 -49 -117.5 t-121 -47.5q-70 0 -120 47.5t-50 117.5zM377 416q0 -110 37.5 -160.5t115.5 -50.5q68 0 120 46t80 119.5t41 149t13 150.5q0 109 -37.5 161t-115.5 52q-63 0 -113 -41.5t-80 -110t-45.5 -149.5t-15.5 -166zM791 1470q0 69 49.5 116.5t120.5 47.5q70 0 118.5 -47.5 t48.5 -116.5q0 -70 -48 -117.5t-119 -47.5t-120.5 47.5t-49.5 117.5z" />
<glyph unicode="&#xf7;" d="M76 526l33 252h892l-32 -252h-893zM299 213q0 77 54.5 131.5t131.5 54.5q78 0 132.5 -54.5t54.5 -131.5t-54.5 -131.5t-132.5 -54.5q-77 0 -131.5 54.5t-54.5 131.5zM406 1092q0 77 55 131.5t133 54.5q76 0 131 -55t55 -131q0 -75 -55 -130t-131 -55q-78 0 -133 55 t-55 130z" />
<glyph unicode="&#xf8;" horiz-adv-x="1191" d="M43 434q0 108 24.5 209t74.5 188.5t121 152.5t170.5 102.5t215.5 37.5q47 0 80 -8l113 242l229 -70l-119 -252q176 -133 176 -387q0 -140 -40 -263.5t-114.5 -217.5t-190 -148.5t-257.5 -54.5q-42 0 -80 6l-114 -252l-232 70l121 260q-178 123 -178 385zM371 426 q0 -86 26 -125l269 580q-14 2 -29 2q-66 0 -118.5 -42t-84 -109.5t-47.5 -146t-16 -159.5zM514 207q8 -2 41 -2q77 1 135 73t84.5 173t26.5 208q0 70 -25 115z" />
<glyph unicode="&#xf9;" horiz-adv-x="1161" d="M74 264q0 57 8 109l100 714h328l-100 -716q-11 -81 5.5 -111.5t63.5 -30.5q46 0 100.5 44.5t104.5 132.5l98 681h328l-154 -1087h-284l4 160q-140 -195 -338 -195q-126 0 -195 74.5t-69 224.5zM387 1464l117 250l479 -299l-82 -166z" />
<glyph unicode="&#xfa;" horiz-adv-x="1161" d="M74 264q0 57 8 109l100 714h328l-100 -716q-11 -81 5.5 -111.5t63.5 -30.5q46 0 100.5 44.5t104.5 132.5l98 681h328l-154 -1087h-284l4 160q-140 -195 -338 -195q-126 0 -195 74.5t-69 224.5zM410 1413l479 297l117 -248l-517 -215z" />
<glyph unicode="&#xfb;" horiz-adv-x="1161" d="M74 264q0 57 8 109l100 714h328l-100 -716q-11 -81 5.5 -111.5t63.5 -30.5q46 0 100.5 44.5t104.5 132.5l98 681h328l-154 -1087h-284l4 160q-140 -195 -338 -195q-126 0 -195 74.5t-69 224.5zM291 1391l330 280h198l254 -287l-135 -133l-240 195l-303 -195z" />
<glyph unicode="&#xfc;" horiz-adv-x="1161" d="M74 264q0 57 8 109l100 714h328l-100 -716q-11 -81 5.5 -111.5t63.5 -30.5q46 0 100.5 44.5t104.5 132.5l98 681h328l-154 -1087h-284l4 160q-140 -195 -338 -195q-126 0 -195 74.5t-69 224.5zM281 1470q0 68 50 116t120 48q72 0 121 -47.5t49 -116.5q0 -70 -49 -117.5 t-121 -47.5q-70 0 -120 47.5t-50 117.5zM774 1470q0 69 49.5 116.5t120.5 47.5t119.5 -47.5t48.5 -116.5q0 -70 -48.5 -117.5t-119.5 -47.5t-120.5 47.5t-49.5 117.5z" />
<glyph unicode="&#xfd;" horiz-adv-x="1042" d="M-43 -221q171 18 259 68.5t140 152.5h-106l-195 1087h338l82 -862h8l297 862h344l-452 -1075q-95 -224 -263 -339.5t-440 -127.5zM367 1413l479 297l117 -248l-517 -215z" />
<glyph unicode="&#xfe;" horiz-adv-x="1212" d="M-25 -455l277 1975l334 34l-92 -641q74 101 165.5 156t182.5 55q141 0 224 -100.5t83 -308.5q0 -162 -41.5 -304t-110 -238.5t-159 -152t-187.5 -55.5q-160 0 -274 117l-70 -502zM406 287q67 -84 161 -84q57 0 112.5 60t94.5 179t39 267q0 77 -28 115t-70 38 q-123 0 -264 -260z" />
<glyph unicode="&#xff;" horiz-adv-x="1042" d="M-43 -221q171 18 259 68.5t140 152.5h-106l-195 1087h338l82 -862h8l297 862h344l-452 -1075q-95 -224 -263 -339.5t-440 -127.5zM223 1470q0 68 50 116t120 48q72 0 121 -47.5t49 -116.5q0 -70 -49 -117.5t-121 -47.5q-70 0 -120 47.5t-50 117.5zM717 1470 q0 69 49.5 116.5t120.5 47.5t119.5 -47.5t48.5 -116.5q0 -70 -48.5 -117.5t-119.5 -47.5t-120.5 47.5t-49.5 117.5z" />
<glyph unicode="&#x152;" horiz-adv-x="1902" d="M102 571q0 134 26 260.5t81.5 240.5t135.5 199t196.5 135t255.5 50q117 0 207 -37h931l-65 -241h-608q72 -147 75 -338h428l-28 -242h-422q-44 -219 -152 -354h627l-29 -244h-839q-167 -35 -267 -35q-257 0 -405 159t-148 447zM453 532q0 -168 52.5 -243.5t156.5 -75.5 q59 0 108 24.5t83 65.5t60.5 98t42 117t26 128t14 126t3.5 115q0 167 -53 243t-155 76q-80 0 -142 -47.5t-98 -119t-59 -166.5t-31 -177.5t-8 -163.5z" />
<glyph unicode="&#x153;" horiz-adv-x="1789" d="M43 434q0 108 23.5 209t72.5 188.5t117.5 152.5t165 102.5t209.5 37.5q114 0 206 -46t152 -126q172 172 395 172q182 0 283.5 -81.5t101.5 -217.5q0 -178 -171 -287t-525 -139q17 -190 182 -190q68 0 127 19t134 69l126 -195q-85 -63 -195.5 -100t-217.5 -37 q-216 0 -346 170q-151 -170 -365 -170q-221 0 -348 124t-127 345zM377 416q0 -110 37.5 -160.5t115.5 -50.5q57 0 102.5 32.5t73 82.5t46 114t25.5 122.5t7 113.5q0 109 -37.5 161t-115.5 52q-63 0 -113 -41.5t-80 -110t-45.5 -149.5t-15.5 -166zM1081 592q197 21 280 75 t83 148q0 42 -28 66t-77 24q-87 0 -160 -83t-98 -230z" />
<glyph unicode="&#x178;" horiz-adv-x="1210" d="M82 1419h360l179 -612h8l332 612h370l-563 -887l-63 -532h-343l66 530zM338 1716q0 67 50.5 115.5t119.5 48.5q72 0 121 -48t49 -116q0 -71 -49 -119.5t-121 -48.5q-70 0 -120 49t-50 119zM813 1716q0 67 50.5 115.5t119.5 48.5q72 0 121 -48t49 -116q0 -71 -49 -119.5 t-121 -48.5q-70 0 -120 49t-50 119z" />
<glyph unicode="&#x2c6;" horiz-adv-x="905" d="M61 1391l330 280h199l254 -287l-135 -133l-240 195l-303 -195z" />
<glyph unicode="&#x2dc;" horiz-adv-x="913" d="M61 1376q123 240 293 240q44 0 82 -13.5t59 -29.5t45 -29.5t44 -13.5q33 0 56.5 19.5t57.5 66.5l154 -78q-55 -107 -129.5 -174.5t-163.5 -67.5q-44 0 -82 14t-59 30t-45.5 30t-44.5 14q-33 0 -56 -19t-57 -67z" />
<glyph unicode="&#x2000;" horiz-adv-x="1026" />
<glyph unicode="&#x2001;" horiz-adv-x="2052" />
<glyph unicode="&#x2002;" horiz-adv-x="1026" />
<glyph unicode="&#x2003;" horiz-adv-x="2052" />
<glyph unicode="&#x2004;" horiz-adv-x="684" />
<glyph unicode="&#x2005;" horiz-adv-x="513" />
<glyph unicode="&#x2006;" horiz-adv-x="342" />
<glyph unicode="&#x2007;" horiz-adv-x="342" />
<glyph unicode="&#x2008;" horiz-adv-x="256" />
<glyph unicode="&#x2009;" horiz-adv-x="410" />
<glyph unicode="&#x200a;" horiz-adv-x="114" />
<glyph unicode="&#x2010;" horiz-adv-x="835" d="M80 514l37 254h653l-35 -254h-655z" />
<glyph unicode="&#x2011;" horiz-adv-x="835" d="M80 514l37 254h653l-35 -254h-655z" />
<glyph unicode="&#x2012;" horiz-adv-x="835" d="M80 514l37 254h653l-35 -254h-655z" />
<glyph unicode="&#x2013;" horiz-adv-x="1064" d="M33 514l35 254h979l-35 -254h-979z" />
<glyph unicode="&#x2014;" horiz-adv-x="1632" d="M33 514l35 254h1544l-35 -254h-1544z" />
<glyph unicode="&#x2018;" horiz-adv-x="485" d="M137 1110q0 87 74 211l160 258h164l-125 -324q73 -54 73 -141q0 -69 -51 -116.5t-127 -47.5q-75 0 -121.5 44.5t-46.5 115.5z" />
<glyph unicode="&#x2019;" horiz-adv-x="483" d="M119 967l125 323q-74 51 -74 140q0 71 51 118t129 47q73 0 119.5 -45t46.5 -116q0 -92 -74 -211l-159 -256h-164z" />
<glyph unicode="&#x201a;" horiz-adv-x="483" d="M-49 -336l125 324q-74 57 -74 141q0 69 51.5 116.5t128.5 47.5q75 0 121.5 -44.5t46.5 -115.5q0 -88 -76 -211l-159 -258h-164z" />
<glyph unicode="&#x201c;" horiz-adv-x="909" d="M137 1110q0 87 74 211l160 258h164l-125 -324q73 -54 73 -141q0 -69 -51 -116.5t-127 -47.5q-75 0 -121.5 44.5t-46.5 115.5zM561 1110q0 88 76 211l158 258h163l-122 -324q71 -54 71 -141q0 -69 -51 -116.5t-127 -47.5q-75 0 -121.5 44.5t-46.5 115.5z" />
<glyph unicode="&#x201d;" horiz-adv-x="909" d="M111 967l125 323q-74 51 -74 140q0 71 51 118t129 47q75 0 121.5 -45t46.5 -116q0 -88 -76 -211l-160 -256h-163zM537 967l122 323q-71 51 -71 140q0 71 51 118t127 47q75 0 121.5 -45t46.5 -116q0 -88 -76 -211l-158 -256h-163z" />
<glyph unicode="&#x201e;" horiz-adv-x="907" d="M-49 -336l125 324q-74 57 -74 141q0 69 51.5 116.5t128.5 47.5q75 0 121.5 -44.5t46.5 -115.5q0 -88 -76 -211l-159 -258h-164zM377 -336l123 324q-72 55 -72 141q0 69 51 116.5t127 47.5q75 0 121.5 -44.5t46.5 -115.5q0 -88 -76 -211l-157 -258h-164z" />
<glyph unicode="&#x2022;" horiz-adv-x="765" d="M104 700q0 126 84.5 208.5t210.5 82.5q125 0 209 -83.5t84 -209.5q0 -125 -84 -207.5t-209 -82.5q-126 0 -210.5 83.5t-84.5 208.5z" />
<glyph unicode="&#x2026;" horiz-adv-x="1529" d="M8 152q0 77 54.5 131.5t132.5 54.5q77 0 131.5 -55t54.5 -131q0 -77 -55 -132t-131 -55q-78 0 -132.5 55t-54.5 132zM516 152q0 77 55.5 131.5t133.5 54.5q76 0 130 -54.5t54 -131.5t-54 -132t-130 -55q-78 0 -133.5 55t-55.5 132zM1026 152q0 76 55 131t131 55 q78 0 132.5 -54.5t54.5 -131.5t-54.5 -132t-132.5 -55q-76 0 -131 55t-55 132z" />
<glyph unicode="&#x202f;" horiz-adv-x="410" />
<glyph unicode="&#x2039;" horiz-adv-x="737" d="M59 489l29 207l457 449l178 -144l-322 -413l203 -422l-217 -133z" />
<glyph unicode="&#x203a;" horiz-adv-x="739" d="M14 176l322 414l-203 422l217 133l328 -457l-29 -207l-456 -448z" />
<glyph unicode="&#x205f;" horiz-adv-x="513" />
<glyph unicode="&#x20ac;" horiz-adv-x="1208" d="M4 449l64 169h127q3 64 16 146h-166l66 170h141q73 223 233 351t394 128q209 0 378 -113l-137 -198q-111 80 -235 80q-106 0 -185.5 -62t-124.5 -186h486l-66 -170h-460q-12 -67 -15 -146h428l-65 -169h-359q26 -246 252 -246q143 0 307 104l-30 -260q-175 -82 -334 -82 q-227 0 -363.5 127.5t-158.5 356.5h-193z" />
<glyph unicode="&#x2122;" horiz-adv-x="1837" d="M57 1231v188h729l-32 -188h-224v-625h-239v625h-234zM817 606l29 813h307l131 -483h10l109 483h321l29 -813h-229l-8 373q-2 113 12 231h-8l-138 -520h-186l-154 520h-8q1 -14 4.5 -60t5 -84t0.5 -87l-8 -373h-219z" />
<glyph unicode="&#x25fc;" horiz-adv-x="1085" d="M0 0v1085h1085v-1085h-1085z" />
<glyph unicode="&#xfb01;" horiz-adv-x="1216" d="M-164 -217q128 47 185.5 117t78.5 217l107 743h-168l33 227h166l12 93q27 190 138.5 282t328.5 92q99 0 201 -26t180 -70l-113 -207q-117 62 -240 62q-80 0 -118.5 -32t-48.5 -114l-13 -80h604l-153 -1087h-326l121 860h-279l-104 -731q-35 -242 -154.5 -375.5 t-355.5 -208.5z" />
<glyph unicode="&#xfb02;" horiz-adv-x="1286" d="M-164 -217q128 47 185.5 117t78.5 217l107 743h-168l33 227h166l12 93q27 190 138.5 282t328.5 92q130 0 252 -38l295 32l-174 -1235q-7 -49 4.5 -69.5t40.5 -20.5q23 0 53 10l31 -229q-93 -39 -201 -39q-260 0 -260 260q0 50 8 99l135 968q-83 27 -156 27 q-81 0 -118 -33t-49 -119l-13 -80h207l-67 -227h-173l-104 -731q-35 -242 -154.5 -375.5t-355.5 -208.5z" />
</font>
</defs>
</svg>
